<svg xmlns="http://www.w3.org/2000/svg"><defs><font horiz-adv-x="1009"><font-face ascent="1638" descent="-410" units-per-em="2048"/><missing-glyph horiz-adv-x="457"/><glyph horiz-adv-x="0"/><glyph horiz-adv-x="508" unicode="&#xd;"/><glyph horiz-adv-x="457" unicode="&#x20;"/><glyph horiz-adv-x="457" unicode="&#x09;"/><glyph horiz-adv-x="457" unicode="&#xa0;"/><glyph d="M0 76v12q14 88 81 88 95-8 95-95-20-81-81-81h-19q-76 18-76 76zM24 1348h125l-20-1051h-85z" horiz-adv-x="326" unicode="&#x21;"/><glyph d="M0 945v33q59 33 70 146 0 11 2 20-72 19-72 75v12q14 88 81 88 95-8 95-95-6-99-63.5-189t-112.5-90zM250 945v33q59 33 70 146 0 11 2 20-72 19-72 75v12q14 88 81 88 95-8 95-95-6-99-63.5-189t-112.5-90z" horiz-adv-x="576" unicode="&#x22;"/><glyph d="M0 472l30 98h271l86 290h-295l29 97h295l140 477h93l-141-477h242l142 477h92l-141-477h259l-29-97h-259l-83-290h279l-30-98h-280l-140-472h-92l139 472h-240l-142-472h-92l140 472h-273zM394 569h242l86 290h-243z" horiz-adv-x="1252" unicode="&#x23;"/><glyph d="M0 344v6h127v-2q0-151 164-219v478l-38 16q-131 52-201 151-52 98-52 180 0 200 189 317 47 27 102 37v269h120v-265q172-21 274-205 32-70 32-148h-132v2q0 151-168 219l-6 1v-495q46-22 95-43 133-58 179-146 32-70 32-148 0-216-216-333-52-16-90-23v-267h-120v268q-142 28-239 170-52 98-52 180zM129 957q12-128 128-192 17-9 34-19v431q-49-16-94-56-68-72-68-164zM411 127q111 25 165 162l7 63q-4 99-102 159-33 20-70 40v-424z" horiz-adv-x="867" unicode="&#x24;"/><glyph d="M0 1086v3q0 150 157 216 35 12 74 12 154 0 222-166l6-50v-30q0-105-111-182-63-34-117-34-146 0-219 154-12 42-12 77zM23 66l653 1259 125-67-653-1258zM120 1084q0-77 91-106h26q87 8 100 100 0 81-79 113l-32 4q-64 0-99-72zM365 233v3q0 150 157 216 35 12 74 12 154 0 222-166l6-50v-30q0-105-111-182-63-34-117-34-146 0-219 154-12 42-12 77zM485 231q0-77 91-106h26q87 8 100 100 0 81-79 113l-32 4q-64 0-99-72z" horiz-adv-x="974" unicode="&#x25;"/><glyph d="M0 427q0 133 70 236l-8 12q-62 117-62 216 0 239 226 379 83 47 185 53h7q62 0 131-16 100-28 181-105l-89-90q-79 79-208 86h-22q-101-6-190-86-91-95-91-216 0-76 31.5-122t101.5-107q-69-67-101-116t-32-119q0-200 220-288l82-10q202 0 288 221l10 82q0 71-30 121-28 46-89 99h-215v125h545v-125h-148q14-22 28-47 38-84 38-178 0-258-259-398-109-34-168-34-226 0-370 211-62 117-62 216z" horiz-adv-x="1091" unicode="&#x26;"/><glyph d="M0 945v33q59 33 70 146 0 11 2 20-72 19-72 75v12q14 88 81 88 95-8 95-95-6-99-63.5-189t-112.5-90z" horiz-adv-x="326" unicode="&#x27;"/><glyph d="M0 601q2 277 99.5 530t268.5 442h80q-172-242-230-438-57-193-57-523v-22q0-330 57-522 58-196 230-438h-80q-171 189-268.5 441.5t-99.5 529.5z" horiz-adv-x="598" unicode="&#x28;"/><glyph d="M0-370q172 242 230 438 57 192 57 522v22q0 330-57 523-58 196-230 438h80q171-189 268.5-442t99.5-530q-2-277-99.5-529.5t-268.5-441.5h-80z" horiz-adv-x="598" unicode="&#x29;"/><glyph d="M0 1333q0 17 6 36 11 35 36 53 17 12 34 12 9 0 18-3 20-6 74-62 47-49 112-75-4 71-37 130-37 66-37 84 0 32 23.5 51.5t62.5 19.5q37 0 61.5-18t24.5-47q0-21-36-89-33-61-37-130 66 25 113 75 51 55 69 61 11 3 21 3 18 0 35-10 26-17 38-53 6-19 6-36 0-15-4-28-10-30-38-38-6-2-19-2-25 0-76 9-28 5-55 5-41 0-81-11 44-55 105-83 68-32 79-47 13-18 13-38 0-9-2-17-8-30-39-53-29-22-59-22-1 0-1 1-31 0-48 23-12 17-22 94-10 67-47 125-38-58-46-124-9-75-20-90-19-25-49-27h-5q-28 0-57 21-30 21-39 51-4 10-4 20 0 17 11 32 13 17 83 51 61 29 105 82-41 11-80 11-27 0-53-5-54-11-78-11-9 0-14 2-30 9-41 38-6 13-6 29z" horiz-adv-x="737" unicode="&#x2a;"/><glyph d="M0 647v140h350v369l1 1h139v-370h349l1-1v-139h-350v-370h-140v370h-350z" horiz-adv-x="990" unicode="&#x2b;"/><glyph d="M0 76v12q14 88 81 88 95-8 95-95-6-99-63.5-189t-112.5-90v33q59 33 70 146 0 11 2 20-72 19-72 75z" horiz-adv-x="326" unicode="&#x2c;"/><glyph d="M0 425l1 125h416l1-125h-418z" horiz-adv-x="568" unicode="&#x2d;"/><glyph d="M0 76v12q14 88 81 88 95-8 95-95-20-81-81-81h-19q-76 18-76 76z" horiz-adv-x="326" unicode="&#x2e;"/><glyph d="M0-50l541 1484h80l-541-1484h-80z" horiz-adv-x="771" unicode="&#x2f;"/><glyph d="M0 662q4 295 178 524 136 139 285 139 244 0 401-317 67-174 67-346 0-384-262-600-103-62-206-62-172 0-315 178-144 213-148 484zM128 658q0-322 199-490 76-48 137-48 175 0 291 254 49 144 49 284 0 305-189 480-77 52-151 52-182 0-291-268-45-133-45-264z" horiz-adv-x="1081" unicode="&#x30;"/><glyph d="M0 0v1225l125 100v-1325h-125z" horiz-adv-x="275" unicode="&#x31;"/><glyph d="M0 0l2 2h-2l564 835q23 43 31 101 0 174-168 240l-68 9q-137 0-211-153l-14-90h-125q0 251 245 354 54 19 115 19 240 0 346-259l9-77v-48q0-108-88-230l-402-578h481v-125h-715z" horiz-adv-x="874" unicode="&#x32;"/><glyph d="M0 427v5h130q0-200 220-288l82-10q202 0 288 221l10 82q0 199-221 288l-82 9h-65l245 463h-562v125h770l-242-485q151-52 248-227 38-84 38-178 0-258-259-398-109-34-168-34-226 0-370 211-62 117-62 216z" unicode="&#x33;"/><glyph d="M0 275l665 1050v-924h204v-125h-204v-276h-125v276zM220 401h320v517z" horiz-adv-x="1019" unicode="&#x34;"/><glyph d="M2 431v5h130q0-200 220-288l82-10q202 0 288 221l10 82q0 199-221 288l-82 9-369-1 92 582h2l-2 2h655v-125h-541l-58-334 231 1q246 0 384-249 38-84 38-178 0-258-259-398-109-34-168-34-226 0-370 211-62 117-62 216z" unicode="&#x35;"/><glyph d="M0 427q0 90 32 166v1l380 731 145 2-255-488q63 20 135 20 246 0 384-249 38-84 38-178 0-258-259-398-109-34-168-34-226 0-370 211-62 117-62 216zM130 432q0-200 220-288l82-10q202 0 288 221l10 82q0 199-221 288l-82 9q-110 0-206-86-91-95-91-216z" unicode="&#x36;"/><glyph d="M0 2l602 1195h-602v128h810l-661-1325z" horiz-adv-x="960" unicode="&#x37;"/><glyph d="M0 360v5q0 186 156 289-82 60-137 176-19 66-19 120v5q0 233 245 336 54 19 115 19 240 0 346-259l9-77v-48q0-153-152-268 89-65 143-197l9-77v-48q0-163-173-283-98-53-182-53-228 0-341 240-19 66-19 120zM125 355q0-165 192-225h57q184 16 212 211 0 174-168 240l-68 9q-137 0-211-153zM125 945q0-165 192-225h57q184 16 212 211 0 174-168 240l-68 9q-137 0-211-153z" horiz-adv-x="865" unicode="&#x38;"/><glyph d="M0 895q0 258 259 398 109 34 168 34 226 0 370-211 62-117 62-216 0-90-32-166v-1l-380-731-145-2 255 488q-63-20-135-20-246 0-384 249-38 84-38 178zM129 890q0-199 221-288l82-9q110 0 206 86 91 95 91 216 0 200-220 288l-82 10q-202 0-288-221z" unicode="&#x39;"/><glyph d="M0 76v12q14 88 81 88 95-8 95-95-20-81-81-81h-19q-76 18-76 76zM0 596v12q14 88 81 88 95-8 95-95-20-81-81-81h-19q-76 18-76 76z" horiz-adv-x="326" unicode="&#x3a;"/><glyph d="M0 76v12q14 88 81 88 95-8 95-95-6-99-63.5-189t-112.5-90v33q59 33 70 146 0 11 2 20-72 19-72 75zM0 596v12q14 88 81 88 95-8 95-95-20-81-81-81h-19q-76 18-76 76z" horiz-adv-x="326" unicode="&#x3b;"/><glyph d="M0 674v83l840 484v-167l-625-359 625-355v-167z" horiz-adv-x="990" unicode="&#x3c;"/><glyph d="M0 491v140h840v-140h-840zM0 803v140h840v-140h-840z" horiz-adv-x="990" unicode="&#x3d;"/><glyph d="M0 193v167l625 355-625 359v167l840-484v-83z" horiz-adv-x="990" unicode="&#x3e;"/><glyph d="M0 1192q81 77 181 105 46 14 109 16 51-1 73-5 64-13 116-48 228-141 228-382 0-100-62-218-108-158-261-198l-12-165h-85l-20 286 88 10q221 89 221 290 0 122-92 218-94 84-202 86-119-11-193-85zM243 76v12q14 88 81 88 95-8 95-95-20-81-81-81h-19q-76 18-76 76z" horiz-adv-x="857" unicode="&#x3f;"/><glyph d="M0 586q0 148 55.5 283t159.5 238q102 104 238.5 160.5t286.5 56.5q145 0 280-56.5t239-160.5q102-101 158.5-238t56.5-283q0-147-66.5-302t-147.5-164q-39-7-72-7-155 0-172 154-54-52-132-95-110-34-169-34-228 0-373 212-62 118-62 218 0 241 228 382 94 53 212 53 175 0 296-126v96h123v-723q17-21 47-21 14 0 32 5 51 29 87.5 129.5t36.5 221.5q0 120-46.5 232.5t-129.5 196.5q-86 86-197 132t-231 46q-123 0-235-46t-197-132-130.5-196.5-45.5-232.5q0-123 45.5-232t132.5-196q88-86 196-131.5t229-45.5h20v-130h-20q-146 0-278 55.5t-238 160.5q-106 104-161.5 237.5t-55.5 282.5zM411 573q0-201 221-290l83-10q203 0 290 222l10 83q0 200-222 290l-83 9q-111 0-207-86-92-96-92-218z" horiz-adv-x="1624" unicode="&#x40;"/><glyph d="M0 72l639 1253v-4l650-1245-123-76v2l-314 612h-427l-314-612v-2zM484 728h310l-155 302z" horiz-adv-x="1326" unicode="&#x41;"/><glyph d="M0 0v1325h124v-1h220q214 0 328-207 32-69 32-147 0-182-154-293 71-54 122-150 32-72 32-153 0-223-215-344-90-29-145-29h-220v-1h-124zM124 136h222q159 0 226 177l8 66q0 159-171 231h-282v1h-3v-475zM124 742h240q145 9 208 169l8 64q0 153-171 222h-285v-455z" horiz-adv-x="854" unicode="&#x42;"/><glyph d="M0 641q5 296 193 491 198 192 507 192 21 0 43-1 236-39 386-189l-95-96q-152 152-365 152-71 0-149-17-145-43-238-136-156-156-156-366 0-96 33-204 51-118 119-186 157-157 387-157 57 0 119 10 156 48 255 147l92-92q-191-189-454-189-110 0-233 33-148 60-251 163-175 175-193 445z" horiz-adv-x="1181" unicode="&#x43;"/><glyph d="M0 0v1325h260q142-2 284-62 375-216 375-600 0-172-96-346-221-313-563-317h-260zM125 135h135q116 3 231 52 298 175 298 480 0 140-77 284-179 247-452 254h-135v-1070z" horiz-adv-x="973" unicode="&#x44;"/><glyph d="M0 0v1325h785v-125h-660v-465h534v-125h-534v-485h660v-125h-785z" horiz-adv-x="935" unicode="&#x45;"/><glyph d="M0 0v1325h784v-125h-659v-465h534v-125h-534v-610h-125z" horiz-adv-x="837" unicode="&#x46;"/><glyph d="M0 641q5 296 193 491 198 192 507 192 21 0 43-1 236-39 386-189l-95-96q-152 152-365 152-71 0-149-17-145-43-238-136-156-156-156-366 0-96 33-204 51-118 119-186 157-157 387-157 57 0 119 10 130 40 221 116v350h125v-410l1-1q-191-189-454-189-110 0-233 33-148 60-251 163-175 175-193 445z" horiz-adv-x="1201" unicode="&#x47;"/><glyph d="M0 0v1325h124v-597h536v597h124v-1325h-124v614h-536v-614h-124z" horiz-adv-x="934" unicode="&#x48;"/><glyph d="M0 0v1325h125v-1325h-125z" horiz-adv-x="275" unicode="&#x49;"/><glyph d="M0 0v135q277 35 288 297h1v893h125v-893q-12-286-255-398-101-31-159-34z" horiz-adv-x="564" unicode="&#x4a;"/><glyph d="M0 0v1325h125v-542l569 553 79-95-594-577 606-598-90-91-570 569v-544h-125z" horiz-adv-x="813" unicode="&#x4b;"/><glyph d="M0 0v1325h125v-1200h660v-125h-785z" horiz-adv-x="813" unicode="&#x4c;"/><glyph d="M0 0l1 1347 652-1062 652 1062v-1347h-125v865l-527-861v-4l-528 865v-865h-125z" horiz-adv-x="1455" unicode="&#x4d;"/><glyph d="M0 0v1325l660-943v943h125l-1-1325-659 925v-925h-125z" horiz-adv-x="935" unicode="&#x4e;"/><glyph d="M0 662q5 295 254 524 194 139 408 139 348 0 572-317 96-174 96-346 0-384-375-600-147-62-293-62-247 0-451 178-206 213-211 484zM130 658q0-322 316-490 120-48 216-48 277 0 461 254 77 144 77 284 0 305-298 480-122 52-240 52-288 0-460-268-72-133-72-264z" horiz-adv-x="1382" unicode="&#x4f;"/><glyph d="M0 0v1325h124v-1h220q214 0 328-207 32-69 32-147 0-215-215-331-90-28-145-28h-220v-611h-124zM124 741h222q159 0 226 170l8 64q0 153-171 222h-285v-456z" horiz-adv-x="757" unicode="&#x50;"/><glyph d="M0 662q5 295 254 524 194 139 408 139 348 0 572-317 96-174 96-346 0-343-300-552l147-284-109-62-148 284q-130-48-258-48-247 0-451 178-206 213-211 484zM130 658q0-322 316-490 120-48 216-48 107 0 200 38l-148 284 115 56 144-278q81 59 150 154 77 144 77 284 0 305-298 480-122 52-240 52-288 0-460-268-72-133-72-264z" horiz-adv-x="1366" unicode="&#x51;"/><glyph d="M0 0v1325h124v-1h220q214 0 328-207 32-69 32-147 0-215-215-331-90-28-145-28h-75l431-611h-155l-421 606v-606h-124zM124 741h222q159 0 226 170l8 64q0 153-171 222h-285v-456z" horiz-adv-x="785" unicode="&#x52;"/><glyph d="M0 344v6h127v-2q0-152 167-220l63-7q153 0 219 168l7 63q-4 99-102 159t-228.5 112-200.5 151q-52 98-52 180 0 200 189 317 78 44 176 44 205 0 320-208 32-70 32-148h-132v2q0 151-168 219l-63 7q-83 0-157-66-68-72-68-164 12-128 127.5-192t249-122 179.5-146q32-70 32-148 0-216-216-333-91-28-140-28-189 0-309 176-52 98-52 180z" horiz-adv-x="777" unicode="&#x53;"/><glyph d="M0 1197v125h801v-125h-336v-1197h-125v1197h-340z" horiz-adv-x="825" unicode="&#x54;"/><glyph d="M0 662l2 661h128v-665q0-322 316-490 120-48 216-48 277 0 461 254 77 144 77 284v665h129l1-661q0-384-375-600-147-62-293-62-247 0-451 178-206 213-211 484z" horiz-adv-x="1480" unicode="&#x55;"/><glyph d="M0 1264l123 61v-2l528-1028 527 1028v2l123-56-650-1265v-4z" horiz-adv-x="1338" unicode="&#x56;"/><glyph d="M0 1264l123 61v-2l528-1028 209 407-290 562 123 61v-2l243-473 242 473v2l123-56-290-565 210-409 527 1028v2l123-56-650-1265v-4l-286 556-284-552v-4z" horiz-adv-x="1914" unicode="&#x57;"/><glyph d="M35 1259l119 60 266-520 1 1v-2l3-6 273 532 120-64-318-617 300-584-119-58-255 497-1-1v2l-3 6-260-505-117 68 302 586z" horiz-adv-x="873" unicode="&#x58;"/><glyph d="M0 1251l122 69 331-645 331 645 120-57-389-759v-504h-125v502z" horiz-adv-x="933" unicode="&#x59;"/><glyph d="M0 0l623 1199-618 1v126h836l-1-1h2l-617-1199h615v-125h-679l-1-1h-160z" horiz-adv-x="889" unicode="&#x5a;"/><glyph d="M0 998l290 293 1-1v1l290-293-73-80-217 218-218-218z" horiz-adv-x="731" unicode="&#x5e;"/><glyph d="M0-100h1024v-60h-1024v60z" horiz-adv-x="1174" unicode="&#x5f;"/><glyph d="M0 1217l80 74 291-293-73-80z" horiz-adv-x="521" unicode="&#x60;"/><glyph d="M0 430q0 241 228 382 94 53 212 53 175 0 296-126v126h123v-865h-123v129q-54-52-132-95-110-34-169-34-228 0-373 212-62 118-62 218zM131 435q0-201 221-290l83-10q203 0 290 222l10 83q0 200-222 290l-83 9q-111 0-207-86-92-96-92-218z" unicode="&#x61;"/><glyph d="M0 0v1329h122v-595q120 125 294 125 117 0 211-53 226-140 226-379 0-99-62-216-144-211-370-211-59 0-168 34-77 42-131 94v-128h-122zM123 437l10-82q86-221 288-221l82 10q220 88 220 288 0 121-91 216-96 86-206 86l-82-9q-221-89-221-288z" horiz-adv-x="909" unicode="&#x62;"/><glyph d="M0 426q0 52 11 110 39 127 110 198 125 125 299 125 63 0 132-16 100-28 181-105l-89-90q-79 79-208 86-133-3-219-89t-86-200q0-74 37-161l52-66q86-86 199-86 76 0 163 38l66 51 92-92-4-3q-126-126-299-126-79 0-169 27-102 54-143 95-125 125-125 304z" horiz-adv-x="797" unicode="&#x63;"/><glyph d="M0 427q0 239 226 379 94 53 211 53 174 0 294-125v595h122v-1329h-122v128q-54-52-131-94-109-34-168-34-226 0-370 211-62 117-62 216zM123 437l10-82q86-221 288-221l82 10q220 88 220 288 0 121-91 216-96 86-206 86l-82-9q-221-89-221-288z" horiz-adv-x="1003" unicode="&#x64;"/><glyph d="M0 426q0 52 11 110 39 127 110 198 125 125 299 125 63 0 132-16 77-22 143-72l3 3q29-26 55-59 33-41 62-92 39-86 39-181-1-32-4-59l-713 1q9-48 31-100l52-66q86-86 199-86 76 0 163 38l66 51 92-92-4-3q-126-126-299-126-79 0-169 27-102 54-143 95-125 125-125 304zM137 502h584q-13 69-57 123-21 26-51 49-72 54-177 60-133-3-219-89-64-64-80-143z" horiz-adv-x="949" unicode="&#x65;"/><glyph d="M0 725v134h127q1 280 222 417 92 52 205 53v-125h-4q-110 0-206-86-87-90-87-252v-7h191v-134h-193v-725h-134v725h-121z" horiz-adv-x="549" unicode="&#x66;"/><glyph d="M0 427q0 239 226 379 94 53 211 53 174 0 294-125v125h122v-854q-7-228-203-369-117-62-216-62-239 0-379 226-52 92-53 205h125v-4q0-110 86-206 95-91 216-91 205 0 294 229l8 72v123q-54-52-131-94-109-34-168-34-226 0-370 211-62 117-62 216zM130 432q0-200 220-288l82-10q202 0 288 221l10 82q0 199-221 288l-82 9q-110 0-206-86-91-95-91-216z" horiz-adv-x="1003" unicode="&#x67;"/><glyph d="M0 0v1329h132v-595q120 125 294 125 117 0 211-53 226-140 235-383v-423h-132v430q-7 123-98 218-96 86-206 86l-82-9q-221-89-222-288v-437h-132z" horiz-adv-x="1022" unicode="&#x68;"/><glyph d="M0 1088v11q13 81 75 81 87-7 87-87-18-75-75-75h-17q-70 17-70 70zM12 0v865h125v-865h-125z" horiz-adv-x="312" unicode="&#x69;"/><glyph d="M-280-296q200 3 288 229l7 67v865h125v-865q0-223-205-364-116-62-215-62v130zM3 1088v11q13 81 75 81 87-7 87-87-18-75-75-75h-17q-70 17-70 70z" horiz-adv-x="308" unicode="&#x6a;"/><glyph d="M0 0v1325h144v-886l427 426 107-96-346-336 346-363-104-86-430 451v-435h-144z" horiz-adv-x="741" unicode="&#x6b;"/><glyph d="M0 0v1325h125v-1325h-125z" horiz-adv-x="275" unicode="&#x6c;"/><glyph d="M0 0v865h133v-126q121 126 296 126 118 0 212-53 114-71 174-167 58 96 172 167 67 38 116.5 45.5t83.5 7.5q33 0 82.5-7.5t116.5-45.5q228-141 237-386v-426h-133v433q-7 124-99 220-73 66-156 81l-51 5-46-5q-83-15-156-81-92-96-99-220v-433h-138v433q-7 124-99 220-96 86-207 86l-83-9q-222-90-223-290v-440h-133z" horiz-adv-x="1773" unicode="&#x6d;"/><glyph d="M0 0v865h133v-126q121 126 296 126 118 0 212-53 228-141 237-386v-426h-133v433q-7 124-99 220-96 86-207 86l-83-9q-222-90-223-290v-440h-133z" horiz-adv-x="1028" unicode="&#x6e;"/><glyph d="M0 430q0 241 228 382 94 53 212 53 248 0 387-251 38-84 38-179 0-260-261-401-110-34-169-34-228 0-373 212-62 118-62 218zM131 435q0-201 221-290l83-10q203 0 290 222l10 83q0 200-222 290l-83 9q-111 0-207-86-92-96-92-218z" horiz-adv-x="925" unicode="&#x6f;"/><glyph d="M0-428v1289h122v-128q54 52 131 94 109 34 168 34 226 0 370-211 62-117 62-216 0-239-226-379-94-53-211-53-174 0-294 125v-555h-122zM123 424q0-199 221-288l82-9q110 0 206 86 91 95 91 216 0 200-220 288l-82 10q-202 0-288-221z" horiz-adv-x="933" unicode="&#x70;"/><glyph d="M0 434q0 99 62 216 144 211 370 211 59 0 168-34 77-42 131-94v128h122v-1289h-122v555q-120-125-294-125-117 0-211 53-226 140-226 379zM130 429q0-121 91-216 96-86 206-86l82 9q221 89 221 288l-10 82q-86 221-288 221l-82-10q-220-88-220-288z" horiz-adv-x="1003" unicode="&#x71;"/><glyph d="M0 0v862h123v-123q121 126 296 126h10v-126l-83-9q-222-90-223-290v-440h-123z" horiz-adv-x="497" unicode="&#x72;"/><glyph d="M0 238h120q4-83 104-115h30q100 9 116 114 0 95-92 131l-36 5h-7v1q-158 4-229 177l-6 52v33q0 111 118 193 67 36 125 36 155 0 232-164 12-41 13-74h-120q-4 83-104 115h-30q-100-9-116-114 0-95 92-131l36-5h7v-1q158-4 229-177l6-52v-33q0-111-118-193-67-36-125-36-155 0-232 164-12 41-13 74z" horiz-adv-x="561" unicode="&#x73;"/><glyph d="M0 730v135h121v241h134v-241h193v-135h-193v-730h-134v730h-121z" horiz-adv-x="497" unicode="&#x74;"/><glyph d="M0 439v426h133v-433q7-124 99-220 96-86 207-86l83 9q222 90 223 290v440h133v-865h-133v126q-121-126-296-126-118 0-212 53-228 141-237 386z" horiz-adv-x="1028" unicode="&#x75;"/><glyph d="M0 800l119 65 369-601 373 601 112-68-485-797z" horiz-adv-x="1001" unicode="&#x76;"/><glyph d="M0 801l119 64 367-598 371 598 370-602 371 598 111-67-482-794-372 591-369-587z" horiz-adv-x="1750" unicode="&#x77;"/><glyph d="M0 786l105 79 263-332 263 332 99-82-278-354 271-344-101-83-259 325-251-327-103 88 273 343z" horiz-adv-x="761" unicode="&#x78;"/><glyph d="M0 793l122 66 377-674 381 674 114-69-671-1208-120 72 207 392z" horiz-adv-x="1025" unicode="&#x79;"/><glyph d="M-40 0l569 741h-531v124h783l-574-741h525v-124h-772z" horiz-adv-x="805" unicode="&#x7a;"/><glyph d="M0 638v60q172 5 223 71t51 133v468q0 74 77 141.5t185 67.5h108v-50h-90q-61 0-107-33.5t-47-91.5v-500q0-83-60.5-158.5t-142.5-76.5v-2q82-1 143-76t61-158l-1-500q1-58 47-91.5t107-33.5h90v-50h-108q-108 0-184.5 67.5t-77.5 141.5v468q0 66-51 132t-223 71z" horiz-adv-x="794" unicode="&#x7b;"/><glyph d="M0-418v1995h160v-1995h-160z" horiz-adv-x="310" unicode="&#x7c;"/><glyph d="M0-192h90q61 0 107 33.5t47 91.5l-1 500q0 83 61 158t144 76v2q-83 1-143.5 76.5t-60.5 158.5v500q-1 58-47 91.5t-107 33.5h-90v50h108q108 0 185-67.5t77-141.5v-468q0-67 51-133t223-71v-60q-172-5-223-71t-51-132v-468q-1-74-77.5-141.5t-184.5-67.5h-108v50z" horiz-adv-x="794" unicode="&#x7d;"/><glyph d="M0 556v156q64 73 123 99t114 26q64 0 181.5-49.5t172.5-49.5q52 0 108.5 28t129.5 112v-156q-63-72-122-97.5t-116-25.5q-60 0-177.5 48.5t-176.5 48.5q-51 0-107.5-28t-129.5-112z" horiz-adv-x="979" unicode="&#x7e;"/><glyph d="M0 1260v12q0 58 76 76h19q61 0 81-81 0-87-95-95-67 0-81 88zM24 0l20 1051h85l20-1051h-125z" horiz-adv-x="326" unicode="&#xa1;"/><glyph d="M0 465v125h115v105h-115v125h128q57 273 352 443 140 59 272 62v-120q-260-6-440-254-35-66-53-131h256v-125h-275v-105h275v-125h-275v-340h512v-125h-637v465h-115z" horiz-adv-x="902" unicode="&#xa3;"/><glyph d="M0 371h160v-789h-160v789zM0 789v789h160v-789h-160z" horiz-adv-x="310" unicode="&#xa6;"/><glyph d="M0 1263q0 13 14 26l71 72q13 12 25 12 11 0 27-14l69-73q10-14 10-25 0-13-12-27l-69-75q-17-17-25-17-14 0-25 12l-76 86q-9 12-9 23zM365 1263q0 13 14 26l71 72q13 12 25 12 11 0 27-13l69-74q10-14 10-25 0-13-12-26l-69-76q-17-17-25-17-14 0-25 12l-76 87q-9 11-9 22z" horiz-adv-x="731" unicode="&#xa8;"/><glyph d="M0 661q0 133 49.5 254.5t142.5 213.5q91 93 212.5 144t255.5 51q129 0 249.5-51t212.5-144q91-91 141.5-214t50.5-254q0-132-50.5-253t-144.5-216q-94-94-213.5-143t-252.5-49q-130 0-247.5 50t-212.5 144q-94 93-143.5 213t-49.5 254zM103 661q0-113 41.5-213.5t121.5-180.5q80-79 179-121t210-42q112 0 212 41.5t180 119.5q79 81 121.5 183t42.5 213-42.5 214.5-118.5 180.5q-79 80-180.5 122t-210.5 42q-113 0-215-42t-180-122q-78-79-119.5-181t-41.5-214zM357 660q0 216 203 343 82 47 183 47v-113h-3q-99 0-185-77-82-86-82-196 0-180 197-260l73-9v-121q-202 0-331 190-55 106-55 196z" horiz-adv-x="1464" unicode="&#xa9;"/><glyph d="M0 479l342 303h14v-37l-205-266 205-266v-37h-14zM313 479l342 303h14v-37l-205-266 205-266v-37h-14z" horiz-adv-x="819" unicode="&#xab;"/><glyph d="M0 667v100h840v-491l-1-1h-98v392h-741z" horiz-adv-x="990" unicode="&#xac;"/><glyph d="M0 425l1 125h416l1-125h-418z" horiz-adv-x="568" unicode="&#xad;"/><glyph d="M0 661q0 133 49.5 254.5t142.5 213.5q91 93 212.5 144t255.5 51q129 0 249.5-51t212.5-144q91-91 141.5-214t50.5-254q0-132-50.5-253t-144.5-216q-94-94-213.5-143t-252.5-49q-130 0-247.5 50t-212.5 144q-94 93-143.5 213t-49.5 254zM103 661q0-113 41.5-213.5t121.5-180.5q80-79 179-121t210-42q112 0 212 41.5t180 119.5q79 81 121.5 183t42.5 213-42.5 214.5-118.5 180.5q-79 80-180.5 122t-210.5 42q-113 0-215-42t-180-122q-78-79-119.5-181t-41.5-214zM514 314v702h86v-1q111 0 172-110 17-36 17-77 0-114-99-171l176-343h-102l-164 322v-322h-86zM600 726q68 0 97 74l4 28q0 67-74 97l-27 3v-202z" horiz-adv-x="1464" unicode="&#xae;"/><glyph horiz-adv-x="670" unicode="&#xaf;"/><glyph d="M0 1164q0 116 81.5 197t197.5 81q115 0 196-81.5t81-196.5q0-114-82-196t-197-82q-117 0-197 81t-80 197zM70 1163q0-87 61-147t148-60 147 60 60 147-60.5 148-146.5 61-147.5-61-61.5-148z" horiz-adv-x="706" unicode="&#xb0;"/><glyph d="M0 1078l291 297q35 35 55.5 47t40.5 12q33 0 53.5-20t20.5-51q0-22-15.5-42t-46.5-40l-330-203h-69z" horiz-adv-x="611" unicode="&#xb4;"/><glyph d="M0 1086q0 157 107.5 253t285.5 96h443v-70h-127v-1365h-82v1365h-166v-1365h-84v738q-174 8-275.5 102.5t-101.5 245.5z" horiz-adv-x="986" unicode="&#xb6;"/><glyph d="M0 709q0 15 16 31l82 84q15 14 29 14 13 0 31-16l80-86q12-16 12-29 0-15-14-31l-80-88q-20-20-29-20-16 0-29 14l-88 101q-10 13-10 26z" horiz-adv-x="400" unicode="&#xb7;"/><glyph d="M0-290q85-52 152-52 66 0 94.5 21.5t28.5 66.5-49 64q-40 16-102 16-16 0-34-2l48 176h63l-37-104q32 4 62 5 86 0 134-40.5t48-113.5q0-76-58.5-120.5t-160.5-44.5q-109 0-189 32v96z" horiz-adv-x="558" unicode="&#xb8;"/><glyph d="M0 176v37l205 266-205 266v37h14l342-303-342-303h-14zM313 176v37l205 266-205 266v37h14l342-303-342-303h-14z" horiz-adv-x="819" unicode="&#xbb;"/><glyph d="M0 435q0 100 62 218 108 158 261 198l12 165h85l20-286-88-10q-221-89-221-290 0-122 92-218 94-84 202-86 119 11 193 85l89-90q-81-77-181-105-46-14-109-16-51 1-73 5-64 13-116 48-228 141-228 382zM288 1232q20 81 81 81h19q76-18 76-76v-12q-14-88-81-88-95 8-95 95z" horiz-adv-x="857" unicode="&#xbf;"/><glyph d="M0 72l639 1253v-4l650-1245-123-76v2l-314 612h-427l-314-612v-2zM459 1637l80 74 291-293-73-80zM490 728h310l-155 302z" horiz-adv-x="1322" unicode="&#xc0;"/><glyph d="M0 76l650 1245v4l639-1253-111-72v2l-314 612h-427l-314-612v-2zM459 1418l291 293 80-74-298-299zM490 728h310l-155 302z" horiz-adv-x="1318" unicode="&#xc1;"/><glyph d="M0 72l639 1253v-4l650-1245-123-76v2l-314 612h-427l-314-612v-2zM354 1418l290 293 1-1v1l290-293-73-80-217 218-218-218zM490 728h310l-155 302z" horiz-adv-x="1326" unicode="&#xc2;"/><glyph d="M0 72l639 1253v-4l650-1245-123-76v2l-314 612h-427l-314-612v-2zM259 1410q30 145 106 197 45 31 95 31 34 0 71-15 89-36 226-127 41-27 74-27 75 0 104 142l95-24q-15-143-115-197-31-17-69-17-86 0-206 85-111 77-173 77-36 0-56-26-51-67-51-125v-6zM490 728h310l-155 302z" horiz-adv-x="1314" unicode="&#xc3;"/><glyph d="M0 72l639 1253v-4l650-1245-123-76v2l-314 612h-427l-314-612v-2zM371 1449v12q14 88 81 88 95-8 95-95-20-81-81-81h-19q-76 18-76 76zM484 728h310l-155 302zM751 1449v12q14 88 81 88 95-8 95-95-20-81-81-81h-19q-76 18-76 76z" horiz-adv-x="1318" unicode="&#xc4;"/><glyph d="M0 72l639 1253v-4l650-1245-123-76v2l-314 612h-427l-314-612v-2zM465 1561q0 75 51 126t125 51q76 0 127.5-51.5t51.5-125.5q0-75-51.5-126.5t-127.5-51.5q-74 0-125 51.5t-51 126.5zM484 728h310l-155 302zM559 1561q0-35 24-59.5t60-24.5q35 0 59 24.5t24 59.5q0 33-24.5 58t-58.5 25q-35 0-59.5-25t-24.5-58z" horiz-adv-x="1322" unicode="&#xc5;"/><glyph d="M0 72l638 1251v2h625v-125h-500v-465h374v-125h-374v-485h500v-125h-625v614h-213l-314-612v-2zM484 728h154v300z" horiz-adv-x="1310" unicode="&#xc6;"/><glyph d="M0 641q5 296 193 491 198 192 507 192 21 0 43-1 236-39 386-189l-95-96q-152 152-365 152-71 0-149-17-145-43-238-136-156-156-156-366 0-96 33-204 51-118 119-186 157-157 387-157 57 0 119 10 156 48 255 147l92-92q-191-189-455-189h-16q-36 0-77 5-32-55-32-94 0-46 47-68 84-40 84-115v-10q-7-83-69-117-57-32-111-32-6 0-11 1-59 3-131 64l56 84q62-49 103-49 10 0 19 3 43 14 43 47v3q-2 35-58.5 60.5t-80.5 91.5l56 146q-27 6-54 13-148 60-251 163-175 175-193 445z" horiz-adv-x="1181" unicode="&#xc7;"/><glyph d="M0 0v1325h785v-125h-660v-465h534v-125h-534v-485h660v-125h-785zM207 1637l80 74 291-293-73-80z" horiz-adv-x="935" unicode="&#xc8;"/><glyph d="M0 0v1325h785v-125h-660v-465h534v-125h-534v-485h660v-125h-785zM207 1418l291 293 80-74-298-299z" horiz-adv-x="935" unicode="&#xc9;"/><glyph d="M0 0v1325h785v-125h-660v-465h534v-125h-534v-485h660v-125h-785zM102 1418l290 293 1-1v1l290-293-73-80-217 218-218-218z" horiz-adv-x="935" unicode="&#xca;"/><glyph d="M0 0v1325h785v-125h-660v-465h534v-125h-534v-485h660v-125h-785zM135 1449v12q14 88 81 88 95-8 95-95-20-81-81-81h-19q-76 18-76 76zM515 1449v12q14 88 81 88 95-8 95-95-20-81-81-81h-19q-76 18-76 76z" horiz-adv-x="935" unicode="&#xcb;"/><glyph d="M0 1637l80 74 291-293-73-80zM123 0v1325h125v-1325h-125z" horiz-adv-x="521" unicode="&#xcc;"/><glyph d="M0 1418l291 293 80-74-298-299zM123 0v1325h125v-1325h-125z" horiz-adv-x="521" unicode="&#xcd;"/><glyph d="M0 1418l290 293 1-1v1l290-293-73-80-217 218-218-218zM228 0v1325h125v-1325h-125z" horiz-adv-x="731" unicode="&#xce;"/><glyph d="M0 1445v12q14 88 81 88 95-8 95-95-20-81-81-81h-19q-76 18-76 76zM222 0v1325h125v-1325h-125zM380 1445v12q14 88 81 88 95-8 95-95-20-81-81-81h-19q-76 18-76 76z" horiz-adv-x="706" unicode="&#xcf;"/><glyph d="M0 600l1 125h139v600h260q142-2 284-62 375-216 375-600 0-172-96-346-221-313-563-317h-260v600h-140zM265 135h135q116 3 231 52 298 175 298 480 0 140-77 284-179 247-452 254h-135v-480h152l1-125h-153v-465z" horiz-adv-x="1209" unicode="&#xd0;"/><glyph d="M0 0v1325l660-943v943h125l-1-1325-659 925v-925h-125zM7 1410q30 145 106 197 45 31 95 31 34 0 71-15 89-36 226-127 41-27 74-27 75 0 104 142l95-24q-15-143-115-197-31-17-69-17-86 0-206 85-111 77-173 77-36 0-56-26-51-67-51-125v-6z" horiz-adv-x="935" unicode="&#xd1;"/><glyph d="M0 662q5 295 254 524 194 139 408 139 348 0 572-317 96-174 96-346 0-384-375-600-147-62-293-62-247 0-451 178-206 213-211 484zM130 658q0-322 316-490 120-48 216-48 277 0 461 254 77 144 77 284 0 305-298 480-122 52-240 52-288 0-460-268-72-133-72-264zM480 1637l80 74 291-293-73-80z" horiz-adv-x="1390" unicode="&#xd2;"/><glyph d="M0 662q5 295 254 524 194 139 408 139 348 0 572-317 96-174 96-346 0-384-375-600-147-62-293-62-247 0-451 178-206 213-211 484zM130 658q0-322 316-490 120-48 216-48 277 0 461 254 77 144 77 284 0 305-298 480-122 52-240 52-288 0-460-268-72-133-72-264zM480 1418l291 293 80-74-298-299z" horiz-adv-x="1406" unicode="&#xd3;"/><glyph d="M0 662q5 295 254 524 194 139 408 139 348 0 572-317 96-174 96-346 0-384-375-600-147-62-293-62-247 0-451 178-206 213-211 484zM130 658q0-322 316-490 120-48 216-48 277 0 461 254 77 144 77 284 0 305-298 480-122 52-240 52-288 0-460-268-72-133-72-264zM375 1418l290 293 1-1v1l290-293-73-80-217 218-218-218z" horiz-adv-x="1406" unicode="&#xd4;"/><glyph d="M0 662q5 295 254 524 194 139 408 139 348 0 572-317 96-174 96-346 0-384-375-600-147-62-293-62-247 0-451 178-206 213-211 484zM130 658q0-322 316-490 120-48 216-48 277 0 461 254 77 144 77 284 0 305-298 480-122 52-240 52-288 0-460-268-72-133-72-264zM273 1410q30 145 106 197 45 31 95 31 34 0 71-15 89-36 226-127 41-27 74-27 75 0 104 142l95-24q-15-143-115-197-31-17-69-17-86 0-206 85-111 77-173 77-36 0-56-26-51-67-51-125v-6z" horiz-adv-x="1398" unicode="&#xd5;"/><glyph d="M0 662q5 295 254 524 194 139 408 139 348 0 572-317 96-174 96-346 0-384-375-600-147-62-293-62-247 0-451 178-206 213-211 484zM130 658q0-322 316-490 120-48 216-48 277 0 461 254 77 144 77 284 0 305-298 480-122 52-240 52-288 0-460-268-72-133-72-264zM385 1449v12q14 88 81 88 95-8 95-95-20-81-81-81h-19q-76 18-76 76zM765 1449v12q14 88 81 88 95-8 95-95-20-81-81-81h-19q-76 18-76 76z" horiz-adv-x="1398" unicode="&#xd6;"/><glyph d="M0 190l247 247-247 248 99 98 247-247 248 247 98-99-247-247 247-247-99-99-247 247-247-247z" horiz-adv-x="842" unicode="&#xd7;"/><glyph d="M0 88l157 157q-149 188-153 417 5 295 254 524 194 139 408 139 240 0 421-150l160 160 88-88-159-159q32-37 62-80 96-174 96-346 0-384-375-600-147-62-293-62-230 0-423 155l-155-155zM134 658q0-190 110-326l748 748q-39 31-86 58-122 52-240 52-288 0-460-268-72-133-72-264zM332 244q52-41 118-76 120-48 216-48 277 0 461 254 77 144 77 284 0 195-122 337z" horiz-adv-x="1485" unicode="&#xd8;"/><glyph d="M0 662l2 661h128v-665q0-322 316-490 120-48 216-48 277 0 461 254 77 144 77 284v665h129l1-661q0-384-375-600-147-62-293-62-247 0-451 178-206 213-211 484zM480 1637l80 74 291-293-73-80z" horiz-adv-x="1480" unicode="&#xd9;"/><glyph d="M0 662l2 661h128v-665q0-322 316-490 120-48 216-48 277 0 461 254 77 144 77 284v665h129l1-661q0-384-375-600-147-62-293-62-247 0-451 178-206 213-211 484zM480 1418l291 293 80-74-298-299z" horiz-adv-x="1480" unicode="&#xda;"/><glyph d="M0 662l2 661h128v-665q0-322 316-490 120-48 216-48 277 0 461 254 77 144 77 284v665h129l1-661q0-384-375-600-147-62-293-62-247 0-451 178-206 213-211 484zM375 1418l290 293 1-1v1l290-293-73-80-217 218-218-218z" horiz-adv-x="1480" unicode="&#xdb;"/><glyph d="M0 662l2 661h128v-665q0-322 316-490 120-48 216-48 277 0 461 254 77 144 77 284v665h129l1-661q0-384-375-600-147-62-293-62-247 0-451 178-206 213-211 484zM385 1449v12q14 88 81 88 95-8 95-95-20-81-81-81h-19q-76 18-76 76zM765 1449v12q14 88 81 88 95-8 95-95-20-81-81-81h-19q-76 18-76 76z" horiz-adv-x="1480" unicode="&#xdc;"/><glyph d="M0 1251l122 69 331-645 331 645 120-57-389-759v-504h-125v502zM267 1418l291 293 80-74-298-299z" horiz-adv-x="1054" unicode="&#xdd;"/><glyph d="M0 0v1325h125l-1-290v-1h130q214 0 328-207 32-69 32-147 0-215-215-331-90-28-145-28h-130v-321h-124zM124 451h132q159 0 226 170l8 64q0 153-171 222l-23 1h-172v-457z" horiz-adv-x="764" unicode="&#xde;"/><glyph d="M1 0v865q7 274 228 411 92 52 204 53h1q189-15 219-184 4-34 4-63 0-111-52-137-66-34-142.5-60t-104.5-129v-9q0-73 127-121v-1q202-58 202-299 0-43-7-93 0-111-118-193-67-36-85-36-155 0-232 164-12 41-13 74h120q4-83 104-115 90 9 106 114 3 30 3 57 0 160-102 196-202 68-225 201l-6 65q0 121 118 203 42 22 127 46 68 19 68 77 0 14-4 30-21 83-107 88h-4q-110 0-206-86-89-92-89-253v-865h-134z" horiz-adv-x="769" unicode="&#xdf;"/><glyph d="M0 430q0 241 228 382 94 53 212 53 175 0 296-126v126h123v-865h-123v129q-54-52-132-95-110-34-169-34-228 0-373 212-62 118-62 218zM131 435q0-201 221-290l83-10q203 0 290 222l10 83q0 200-222 290l-83 9q-111 0-207-86-92-96-92-218zM232 1213l80 74 291-293-73-80z" unicode="&#xe0;"/><glyph d="M0 430q0 241 228 382 94 53 212 53 175 0 296-126v126h123v-865h-123v129q-54-52-132-95-110-34-169-34-228 0-373 212-62 118-62 218zM131 435q0-201 221-290l83-10q203 0 290 222l10 83q0 200-222 290l-83 9q-111 0-207-86-92-96-92-218zM328 998l291 293 80-74-298-299z" unicode="&#xe1;"/><glyph d="M0 430q0 241 228 382 94 53 212 53 175 0 296-126v126h123v-865h-123v129q-54-52-132-95-110-34-169-34-228 0-373 212-62 118-62 218zM131 435q0-201 221-290l83-10q203 0 290 222l10 83q0 200-222 290l-83 9q-111 0-207-86-92-96-92-218zM158 998l290 293 1-1v1l290-293-73-80-217 218-218-218z" unicode="&#xe2;"/><glyph d="M0 430q0 241 228 382 94 53 212 53 175 0 296-126v126h123v-865h-123v129q-54-52-132-95-110-34-169-34-228 0-373 212-62 118-62 218zM40 973q30 145 106 197 45 31 95 31 34 0 71-15 89-36 226-127 41-27 74-27 75 0 104 142l95-24q-15-143-115-197-31-17-69-17-86 0-206 85-111 77-173 77-36 0-56-26-51-67-51-125v-6zM131 435q0-201 221-290l83-10q203 0 290 222l10 83q0 200-222 290l-83 9q-111 0-207-86-92-96-92-218z" unicode="&#xe3;"/><glyph d="M0 430q0 241 228 382 94 53 212 53 175 0 296-126v126h123v-865h-123v129q-54-52-132-95-110-34-169-34-228 0-373 212-62 118-62 218zM131 435q0-201 221-290l83-10q203 0 290 222l10 83q0 200-222 290l-83 9q-111 0-207-86-92-96-92-218zM168 1088v12q14 88 81 88 95-8 95-95-20-81-81-81h-19q-76 18-76 76zM548 1088v12q14 88 81 88 95-8 95-95-20-81-81-81h-19q-76 18-76 76z" unicode="&#xe4;"/><glyph d="M0 430q0 241 228 382 94 53 212 53 175 0 296-126v126h123v-865h-123v129q-54-52-132-95-110-34-169-34-228 0-373 212-62 118-62 218zM131 435q0-201 221-290l83-10q203 0 290 222l10 83q0 200-222 290l-83 9q-111 0-207-86-92-96-92-218zM279 1104q0 75 51 126t125 51q76 0 127.5-51.5t51.5-125.5q0-75-51.5-126.5t-127.5-51.5q-74 0-125 51.5t-51 126.5zM373 1104q0-35 24-59.5t60-24.5q35 0 59 24.5t24 59.5q0 33-24.5 58t-58.5 25q-35 0-59.5-25t-24.5-58z" unicode="&#xe5;"/><glyph d="M0 430q0 241 228 382 94 53 212 53 175 0 296-126v126h123v-114q119 108 281 108 63 0 132-16 77-22 143-72l3 3q29-26 55-59 33-41 62-92 39-86 39-181-1-32-4-59l-711 1v-10q9-43 29-90l52-66q86-86 199-86 76 0 163 38l66 51 92-92-4-3q-126-126-299-126-79 0-169 27-86 46-129 82v-109h-123v129q-54-52-132-95-110-34-169-34-228 0-373 212-62 118-62 218zM131 435q0-201 221-290l83-10q203 0 290 222l10 83q0 200-222 290l-83 9q-111 0-207-86-92-96-92-218zM859 502h582q-13 69-57 123-21 26-51 49-72 54-177 60-133-3-219-89-60-60-78-134v-9z" horiz-adv-x="1618" unicode="&#xe6;"/><glyph d="M0-386l56 84q62-49 103-49 10 0 19 3 43 14 43 47v3q-2 35-58.5 60.5t-80.5 91.5l56 146h94q-41-65-41-109 0-47 47-68 84-40 84-115v-10q-7-83-69-117-57-32-111-32-6 0-11 1-59 3-131 64z" horiz-adv-x="472" unicode="&#xe7;"/><glyph d="M0 426q0 52 11 110 39 127 110 198 125 125 299 125 63 0 132-16 77-22 143-72l3 3q29-26 55-59 33-41 62-92 39-86 39-181-1-32-4-59l-713 1q9-48 31-100l52-66q86-86 199-86 76 0 163 38l66 51 92-92-4-3q-126-126-299-126-79 0-169 27-102 54-143 95-125 125-125 304zM137 502h584q-13 69-57 123-21 26-51 49-72 54-177 60-133-3-219-89-64-64-80-143zM219 1213l80 74 291-293-73-80z" horiz-adv-x="1004" unicode="&#xe8;"/><glyph d="M0 426q0 52 11 110 39 127 110 198 125 125 299 125 63 0 132-16 77-22 143-72l3 3q29-26 55-59 33-41 62-92 39-86 39-181-1-32-4-59l-713 1q9-48 31-100l52-66q86-86 199-86 76 0 163 38l66 51 92-92-4-3q-126-126-299-126-79 0-169 27-102 54-143 95-125 125-125 304zM137 502h584q-13 69-57 123-21 26-51 49-72 54-177 60-133-3-219-89-64-64-80-143zM280 994l291 293 80-74-298-299z" horiz-adv-x="1004" unicode="&#xe9;"/><glyph d="M0 426q0 52 11 110 39 127 110 198 125 125 299 125 63 0 132-16 77-22 143-72l3 3q29-26 55-59 33-41 62-92 39-86 39-181-1-32-4-59l-713 1q9-48 31-100l52-66q86-86 199-86 76 0 163 38l66 51 92-92-4-3q-126-126-299-126-79 0-169 27-102 54-143 95-125 125-125 304zM118 998l290 293 1-1v1l290-293-73-80-217 218-218-218zM137 502h584q-13 69-57 123-21 26-51 49-72 54-177 60-133-3-219-89-64-64-80-143z" horiz-adv-x="1004" unicode="&#xea;"/><glyph d="M0 426q0 52 11 110 39 127 110 198 125 125 299 125 63 0 132-16 77-22 143-72l3 3q29-26 55-59 33-41 62-92 39-86 39-181-1-32-4-59l-713 1q9-48 31-100l52-66q86-86 199-86 76 0 163 38l66 51 92-92-4-3q-126-126-299-126-79 0-169 27-102 54-143 95-125 125-125 304zM128 1088v12q14 88 81 88 95-8 95-95-20-81-81-81h-19q-76 18-76 76zM137 502h584q-13 69-57 123-21 26-51 49-72 54-177 60-133-3-219-89-64-64-80-143zM508 1088v12q14 88 81 88 95-8 95-95-20-81-81-81h-19q-76 18-76 76z" horiz-adv-x="1004" unicode="&#xeb;"/><glyph d="M0 1245l80 74 291-293-73-80zM97 8v865h125v-865h-125z" horiz-adv-x="521" unicode="&#xec;"/><glyph d="M0 1026l291 293 80-74-298-299zM97 8v865h125v-865h-125z" horiz-adv-x="521" unicode="&#xed;"/><glyph d="M0 1010l290 293 1-1v1l290-293-73-80-217 218-218-218zM235 0v865h125v-865h-125z" horiz-adv-x="731" unicode="&#xee;"/><glyph d="M0 1084v12q14 88 81 88 95-8 95-95-20-81-81-81h-19q-76 18-76 76zM193 0v865h125v-865h-125zM340 1084v12q14 88 81 88 95-8 95-95-20-81-81-81h-19q-76 18-76 76z" horiz-adv-x="666" unicode="&#xef;"/><glyph d="M0 432q0 94 38 178 138 249 384 249 72 0 135-20l-80 153q-47-26-85-41-37-15-71-15-50 0-95 31-76 52-106 197l101 32v-6q0-58 51-125 20-26 56-26 42 0 106 35l-132 253 145-2 95-182q94 58 165 58 38 0 69-17 100-54 115-197l-95-24q-29 142-104 142-33 0-74-27-16-11-32-21l241-463v-1q32-76 32-166 0-99-62-216-144-211-370-211-59 0-168 34-259 140-259 398zM129 437l10-82q86-221 288-221l82 10q220 88 220 288 0 121-91 216-96 86-206 86l-82-9q-221-89-221-288z" horiz-adv-x="953" unicode="&#xf0;"/><glyph d="M0 0v865h133v-126q121 126 296 126 118 0 212-53 228-141 237-386v-426h-133v433q-7 124-99 220-96 86-207 86l-83-9q-222-90-223-290v-440h-133zM40 973q30 145 106 197 45 31 95 31 34 0 71-15 89-36 226-127 41-27 74-27 75 0 104 142l95-24q-15-143-115-197-31-17-69-17-86 0-206 85-111 77-173 77-36 0-56-26-51-67-51-125v-6z" horiz-adv-x="1028" unicode="&#xf1;"/><glyph d="M0 430q0 241 228 382 94 53 212 53 248 0 387-251 38-84 38-179 0-260-261-401-110-34-169-34-228 0-373 212-62 118-62 218zM131 435q0-201 221-290l83-10q203 0 290 222l10 83q0 200-222 290l-83 9q-111 0-207-86-92-96-92-218zM224 1213l80 74 291-293-73-80z" horiz-adv-x="937" unicode="&#xf2;"/><glyph d="M0 430q0 241 228 382 94 53 212 53 248 0 387-251 38-84 38-179 0-260-261-401-110-34-169-34-228 0-373 212-62 118-62 218zM131 435q0-201 221-290l83-10q203 0 290 222l10 83q0 200-222 290l-83 9q-111 0-207-86-92-96-92-218zM268 998l291 293 80-74-298-299z" horiz-adv-x="921" unicode="&#xf3;"/><glyph d="M0 430q0 241 228 382 94 53 212 53 248 0 387-251 38-84 38-179 0-260-261-401-110-34-169-34-228 0-373 212-62 118-62 218zM131 435q0-201 221-290l83-10q203 0 290 222l10 83q0 200-222 290l-83 9q-111 0-207-86-92-96-92-218zM138 998l290 293 1-1v1l290-293-73-80-217 218-218-218z" horiz-adv-x="925" unicode="&#xf4;"/><glyph d="M0 430q0 241 228 382 94 53 212 53 248 0 387-251 38-84 38-179 0-260-261-401-110-34-169-34-228 0-373 212-62 118-62 218zM40 973q30 145 106 197 45 31 95 31 34 0 71-15 89-36 226-127 41-27 74-27 75 0 104 142l95-24q-15-143-115-197-31-17-69-17-86 0-206 85-111 77-173 77-36 0-56-26-51-67-51-125v-6zM131 435q0-201 221-290l83-10q203 0 290 222l10 83q0 200-222 290l-83 9q-111 0-207-86-92-96-92-218z" horiz-adv-x="933" unicode="&#xf5;"/><glyph d="M0 430q0 241 228 382 94 53 212 53 248 0 387-251 38-84 38-179 0-260-261-401-110-34-169-34-228 0-373 212-62 118-62 218zM131 435q0-201 221-290l83-10q203 0 290 222l10 83q0 200-222 290l-83 9q-111 0-207-86-92-96-92-218zM168 1088v12q14 88 81 88 95-8 95-95-20-81-81-81h-19q-76 18-76 76zM548 1088v12q14 88 81 88 95-8 95-95-20-81-81-81h-19q-76 18-76 76z" horiz-adv-x="925" unicode="&#xf6;"/><glyph d="M0 647v140h839l1-1v-139h-840zM295 377q0 15 16 31l82 84q15 14 29 14 13 0 31-16l80-86q12-16 12-29 0-15-14-31l-80-88q-20-20-29-20-16 0-29 14l-88 101q-10 13-10 26zM295 1070q0 15 16 31l82 84q15 14 29 14 13 0 31-16l80-86q12-16 12-29 0-15-14-31l-80-88q-20-20-29-20-16 0-29 14l-88 101q-10 13-10 26z" horiz-adv-x="990" unicode="&#xf7;"/><glyph d="M0 86l92 91q-13 17-26 35-62 118-62 218 0 241 228 382 94 53 212 53 147 0 256-88l97 96 88-88-100-99q24-33 46-72 38-84 38-179 0-260-261-401-110-34-169-34-147 0-260 88l-91-90zM135 435q0-96 50-166l421 415q-39 26-89 46l-83 9q-111 0-207-86-92-96-92-218zM277 185q35-22 79-40l83-10q203 0 290 222l10 83q0 89-44 157z" horiz-adv-x="1035" unicode="&#xf8;"/><glyph d="M0 439v426h133v-433q7-124 99-220 96-86 207-86l83 9q222 90 223 290v440h133v-865h-133v126q-121-126-296-126-118 0-212 53-228 141-237 386zM228 1213l80 74 291-293-73-80z" horiz-adv-x="1028" unicode="&#xf9;"/><glyph d="M0 439v426h133v-433q7-124 99-220 96-86 207-86l83 9q222 90 223 290v440h133v-865h-133v126q-121-126-296-126-118 0-212 53-228 141-237 386zM332 998l291 293 80-74-298-299z" horiz-adv-x="1028" unicode="&#xfa;"/><glyph d="M0 439v426h133v-433q7-124 99-220 96-86 207-86l83 9q222 90 223 290v440h133v-865h-133v126q-121-126-296-126-118 0-212 53-228 141-237 386zM152 998l290 293 1-1v1l290-293-73-80-217 218-218-218z" horiz-adv-x="1028" unicode="&#xfb;"/><glyph d="M0 439v426h133v-433q7-124 99-220 96-86 207-86l83 9q222 90 223 290v440h133v-865h-133v126q-121-126-296-126-118 0-212 53-228 141-237 386zM172 1088v12q14 88 81 88 95-8 95-95-20-81-81-81h-19q-76 18-76 76zM552 1088v12q14 88 81 88 95-8 95-95-20-81-81-81h-19q-76 18-76 76z" horiz-adv-x="1028" unicode="&#xfc;"/><glyph d="M0 793l122 66 377-674 381 674 114-69-671-1208-120 72 207 392zM331 998l291 293 80-74-298-299z" horiz-adv-x="1144" unicode="&#xfd;"/><glyph d="M0-430v1759h122v-595q120 125 294 125 117 0 211-53 226-140 226-379 0-99-62-216-144-211-370-211-59 0-168 34-77 42-131 94v-558h-122zM123 437l10-82q86-221 288-221l82 10q220 88 220 288 0 121-91 216-96 86-206 86l-82-9q-221-89-221-288z" horiz-adv-x="1003" unicode="&#xfe;"/><glyph d="M0 793l122 66 377-674 381 674 114-69-671-1208-120 72 207 392zM221 1088v12q14 88 81 88 95-8 95-95-20-81-81-81h-19q-76 18-76 76zM601 1088v12q14 88 81 88 95-8 95-95-20-81-81-81h-19q-76 18-76 76z" horiz-adv-x="1144" unicode="&#xff;"/><glyph d="M0 1079l232 355h118l232-355h-58l-233 216-233-216h-58z" horiz-adv-x="732" unicode="&#x2c6;"/><glyph d="M0 1132q19 106 68 158.5t129 52.5q46-1 113-24 64-23 112-23h4q36 0 58 20t36 66h54q-20-103-68.5-154t-126.5-51h-4q-50 0-113 23-66 24-114 24-39 0-60.5-20.5t-33.5-71.5h-54z" horiz-adv-x="724" unicode="&#x2dc;"/><glyph horiz-adv-x="869" unicode="&#x2000;"/><glyph horiz-adv-x="1738" unicode="&#x2001;"/><glyph horiz-adv-x="869" unicode="&#x2002;"/><glyph horiz-adv-x="1738" unicode="&#x2003;"/><glyph horiz-adv-x="579" unicode="&#x2004;"/><glyph horiz-adv-x="434" unicode="&#x2005;"/><glyph horiz-adv-x="289" unicode="&#x2006;"/><glyph horiz-adv-x="289" unicode="&#x2007;"/><glyph horiz-adv-x="217" unicode="&#x2008;"/><glyph horiz-adv-x="347" unicode="&#x2009;"/><glyph horiz-adv-x="96" unicode="&#x200a;"/><glyph d="M0 425l1 125h416l1-125h-418z" horiz-adv-x="568" unicode="&#x2010;"/><glyph d="M0 425l1 125h416l1-125h-418z" horiz-adv-x="568" unicode="&#x2011;"/><glyph d="M0 425l1 125h416l1-125h-418z" horiz-adv-x="568" unicode="&#x2012;"/><glyph d="M0 419v120h996v-120h-996z" horiz-adv-x="1146" unicode="&#x2013;"/><glyph d="M0 419v120h2048v-120h-2048z" horiz-adv-x="2198" unicode="&#x2014;"/><glyph d="M4 1040q6 99 63.5 189t112.5 90v-33q-59-33-70-146 0-11-2-20 72-19 72-75v-12q-14-88-81-88-95 8-95 95z" horiz-adv-x="300" unicode="&#x2018;"/><glyph d="M4 945v33q59 33 70 146 0 11 2 20-72 19-72 75v12q14 88 81 88 95-8 95-95-6-99-63.5-189t-112.5-90z" horiz-adv-x="300" unicode="&#x2019;"/><glyph d="M4 79v12q14 88 81 88 95-8 95-95-6-99-63.5-189t-112.5-90v33q59 33 70 146 0 11 2 20-72 19-72 75z" horiz-adv-x="300" unicode="&#x201a;"/><glyph d="M4 1040q6 99 63.5 189t112.5 90v-33q-59-33-70-146 0-11-2-20 72-19 72-75v-12q-14-88-81-88-95 8-95 95zM254 1040q6 99 63.5 189t112.5 90v-33q-59-33-70-146 0-11-2-20 72-19 72-75v-12q-14-88-81-88-95 8-95 95z" horiz-adv-x="517" unicode="&#x201c;"/><glyph d="M4 945v33q59 33 70 146 0 11 2 20-72 19-72 75v12q14 88 81 88 95-8 95-95-6-99-63.5-189t-112.5-90zM254 945v33q59 33 70 146 0 11 2 20-72 19-72 75v12q14 88 81 88 95-8 95-95-6-99-63.5-189t-112.5-90z" horiz-adv-x="517" unicode="&#x201d;"/><glyph d="M4 69v12q14 88 81 88 95-8 95-95-6-99-63.5-189t-112.5-90v33q59 33 70 146 0 11 2 20-72 19-72 75zM254 69v12q14 88 81 88 95-8 95-95-6-99-63.5-189t-112.5-90v33q59 33 70 146 0 11 2 20-72 19-72 75z" horiz-adv-x="517" unicode="&#x201e;"/><glyph d="M0 718q0 123 87 209t210 86q122 0 208.5-86.5t86.5-208.5-87.5-209.5-209.5-87.5q-123 0-209 87t-86 210z" horiz-adv-x="742" unicode="&#x2022;"/><glyph d="M0 136q0 15 16 31l82 84q15 14 29 14 13 0 31-16l80-86q12-16 12-29 0-15-14-31l-80-88q-20-20-29-20-16 0-29 14l-88 101q-10 13-10 26zM683 136q0 15 16 31l82 84q15 14 29 14 13 0 31-16l80-86q12-16 12-29 0-15-14-31l-80-88q-20-20-29-20-16 0-29 14l-88 101q-10 13-10 26zM1366 136q0 15 16 31l82 84q15 14 29 14 13 0 31-16l80-86q12-16 12-29 0-15-14-31l-80-88q-20-20-29-20-16 0-29 14l-88 101q-10 13-10 26z" horiz-adv-x="1766" unicode="&#x2026;"/><glyph horiz-adv-x="347" unicode="&#x202f;"/><glyph d="M0 479l342 303h14v-37l-205-266 205-266v-37h-14z" horiz-adv-x="506" unicode="&#x2039;"/><glyph d="M0 176v37l205 266-205 266v37h14l342-303-342-303h-14z" horiz-adv-x="506" unicode="&#x203a;"/><glyph horiz-adv-x="434" unicode="&#x205f;"/><glyph d="M0 465l2 125h112q-4 37-4 73 0 16 1 32h-111l2 125h125q63 273 358 443 147 62 302 62v-120q-286 0-470-254-35-66-54-131h397v-125h-419q-1-14-1-28 0-40 5-77h415v-125h-382q69-166 260-278 122-52 249-52v-135q-357 0-581 317-41 74-64 148h-142z" horiz-adv-x="937" unicode="&#x20ac;"/><glyph d="M0 0v865h865v-865h-865z" horiz-adv-x="865" unicode="&#x25fc;"/></font>
</defs>
</svg>
